Несколько общих вопросов по настройке Smarty



  • Осталось пара вопросов в документации на которые не удалось найти ответы.

    1. Как можно добавить еще один тип валюты?
    2. Для изменения полей в форме, нужно редактировать шаблоны формы или это делается через панель администратора? По адресу http://example.com/widgets/1/property/list выдает Server Error (500).


  • Добрый день,

    1. Тип валюты используется для платежного шлюза, встроенного в Smarty (W1, Paypal). Если вы не планируете использовать этот функционал, то можно использовать любой тип.

    2. Да, подтверждаю ошибку. Исправим. Другого способа изменить параметры виджета пока нет.



    1. Обновление smarty 1.48 настройка виджетов так и не работает, также не работает как и прежде виджет epg. На одну страницу выводится только один виджет?
    2. Мониторинг каналов -> Агенты, в документации не нахожу информации что это? Без этого не будет выводится статистика по потокам? (ошибки, битрейт, ....)
    3. Как более правильно добавить канал /tvmiddleware/channel/edit/?checked[]=1 исходные данные: название test, адрес потока udp://231.100.100.1:1234, что-бы позже microstreamer открывал поток и отдавал его абоненту?
    4. По адресу tvmiddleware/streamservice/edit/?checked[]=1 для маски url необходимо разделять переменные к примеру $ip/$prefix$token$key?
    5. В прошлой версии 1.46 по адресу /videoservices/videoservices/config_edit/1/ настройки загружало с microstreamera, теперь часть параметров пустые (лицензия, auth-salt, secret), часть сбрасывается на стандартные (pjson-rpc-listen-host, json-rpc-listen-port).


  • Добрый день,

    @hda сказал Smarty:

    1. Обновление smarty 1.48 настройка виджетов так и не работает, также не работает как и прежде виджет epg. На одну страницу выводится только один виджет?

    Ошибка пока не исправлена, исправим к следующем релизу. Ориентировочно в течение 1-2 недель.

    1. Мониторинг каналов -> Агенты, в документации не нахожу информации что это? Без этого не будет выводится статистика по потокам? (ошибки, битрейт, ....)

    В документации этот функционал пока не описан.
    "Агент" - это сервер с установленным ПО microts_agent, которое предназначено для запуска и чтения данных с анализаторов MPEG-TS потока microts. Данное ПО предоставляется в папке monitoring на нашем FTP. microts_agent по протоколу JSON получает команды от сервера Smarty и запускает анализ, а также сообщает результаты измерений серверу Smarty, после чего эти данные отображаются в соответствующем разделе в Smarty. Инициализация команд осуществляется через management-команду check_streams, триггеров - check_events. Эти команды описаны в документации.

    1. Как более правильно добавить канал /tvmiddleware/channel/edit/?checked[]=1 исходные данные: название test, адрес потока udp://231.100.100.1:1234, что-бы позже microstreamer открывал поток и отдавал его абоненту?

    Канал необходимо прописать в конфиге microstreamer как источник "231.100.100.1 1234 multicast udp", а затем уже подключить в Smarty с помощью функциональности стриминг-сервисов, добавив сервис с маской http://X.X.X.X:8080/$prefix, где X.X.X.X это IP вашего стримера, а $prefix - переменная, в которую будет подставлен префикс телеканала, указанный в настройках канала. Префикс также должен соответствовать заведенному каналу в microstreamer.

    1. По адресу tvmiddleware/streamservice/edit/?checked[]=1 для маски url необходимо разделять переменные к примеру $ip/$prefix$token$key?

    Вы можете использовать любой набор данных переменных, исходя из задачи и настроек стримера. Smarty не ограничивается поддержкой только видео-серверов Microimpuls, поэтому позволяет гибко настроить маршрутизацию потоков с видео-серверов.

    1. В прошлой версии 1.46 по адресу /videoservices/videoservices/config_edit/1/ настройки загружало с microstreamera, теперь часть параметров пустые (лицензия, auth-salt, secret), часть сбрасывается на стандартные (pjson-rpc-listen-host, json-rpc-listen-port).

    Эта ошибка уже исправлена в промежуточной версии, доступной на FTP, также исправление войдет в следующий релиз.



  • По пункту 3 еще уточнение
    Для сервера streamer #1 добавлен канал:
    {
    "enabled" : true,
    "name" : "Tsts 1",
    "payload-size" : 1316,
    "src" : "233.81.116.4 1234 multicast udp",
    "ttl" : 22,
    "url" : "/test"
    }
    Добавление в smarty будет правильным так:
    0_1498202223590_prim.PNG

    И в настройках можно указать какой язык использовать по умолчанию для канала? Для примера есть такой
    Input #0, mpegts, from 'udp://233.100.100.66:1234':
    Duration: N/A, start: 56341.728978, bitrate: N/A
    Program 45
    Metadata:
    service_name : Channel
    service_provider: test
    Stream #0:0[0x1195]: Video: h264 (Main) ([27][0][0][0] / 0x001B), yuv420p(top first), 720x576 [SAR 16:11 DAR 20:11], 25 fps, 25 tbr, 90k tbn, 50 tbc
    Stream #0:10x119b: Audio: mp2 ([4][0][0][0] / 0x0004), 48000 Hz, stereo, s16p, 192 kb/s
    Stream #0:20x119a: Audio: mp2 ([4][0][0][0] / 0x0004), 48000 Hz, stereo, s16p, 192 kb/s



  • В релизной версии Smarty 1.48 ошибка редактирования параметров виджетов для сайта исправлена.


Войдите чтобы оставить сообщение